狮碟影视论坛☆狮碟影视☆ -=电视剧DVD原盘=-『连续剧 DVD原盘』下载 → 【百度网盘】【DVD5】【半路夫妻 2005年】【陈小艺 孙红雷 张嘉译】【28集全】【10碟/38.70GB】【国语中字】

林正英DVD原盘大合集下載 香港藏碟阁195部/VCD原盘 台湾怀旧老电影VCD原盘 邵氏电影大全旧时光影视论坛
港台百年辉煌香艳DVD藏碟阁 【公告】关于威望金币获取途径说明 【通知】手机访问域名请用www.ssdvd.net 邵氏电影风月片大全QQ群:453110225(欢迎加入)

  共有554人关注过本帖树形打印复制链接

主题:【百度网盘】【DVD5】【半路夫妻 2005年】【陈小艺 孙红雷 张嘉译】【28集全】【10碟/38.70GB】【国语中字】

帅哥哟,离线,有人找我吗?
Harukixu
  1楼 信息 | 搜索 | 邮箱 | 主页


加好友 发短信
等级:武林新丁 文章:2 积分:33 精华:0 魅力:4 金币:8130 威望:0 注册:2019-5-9 17:23:56 近访:2019-7-16 23:00:07
【百度网盘】【DVD5】【半路夫妻 2005年】【陈小艺 孙红雷 张嘉译】【28集全】【10碟/38.70GB】【国语中字】  发帖心情 Post By:2019-5-11 10:54:00[只看该作者]

 图片点击可在新窗口打开查看
◎译  名 Halfway couples
◎片  名 半路夫妻 / 变局
◎年  代 2005
◎产  地   中国大陆  
◎类  别 剧情 / 家庭
◎语  言 汉语普通话
◎上映日期 2005
◎IMDb评分  6.4/10
◎IMDb链接  https://www.imdb.com/title/tt4052906/
◎豆瓣评分 7.8/10
◎豆瓣链接 https://movie.douban.com/subject/2347404/
◎集       数  28
◎片  长 54分钟
◎导  演 刘惠宁
◎编      剧   彭三源
◎主  演 陈小艺 孙红雷 张嘉译 张少华 高秀敏 程愫 金莉莉 林源

◎简  介
             
              片警胡小玲(陈小艺 饰)与丈夫铁路干警江建平(张嘉译 饰)因生活缺乏激情协议离婚。胡小玲五年前抓捕的经济罪犯管军(孙红雷 饰)出狱后门庭冷落,亲朋背离。胡小玲担心管军再入歧途,让婆婆江大妈(张少华 饰)将房子租给管军,结果离婚的江建平只好另行租房,入住单身母亲郭芳(程愫 饰)家。 江大妈极力撮合胡小玲与江建平复婚,却发现在胡小玲与管军的频繁接触中,二人越走越近,终于结婚。婚后不久,管军的母亲(高秀敏 饰)从东北来探亲,家中五口人矛盾不断。而管军的狱友老虎(王双宝 饰)即将出狱,托管军照顾的女友妮可(黄曼 饰)却与侵吞管军公司的道上人物纠缠不清。与此同时,江建平与郭芳的关系也因郭芳前夫的介入出现危机,两个新家庭面临的挑战一个接着一个……
General
Complete name : F:\VIDEO_TS\VTS_01_0.VOB
Format : MPEG-PS
File size : 37.6 MiB
Duration : 29s 984ms
Overall bit rate : 10.5 Mbps

Video
ID : 224 (0xE0)
Format : MPEG Video
Format version : Version 2
Format profile : Main@Main
Format settings, BVOP : Yes
Format settings, Matrix : Default
Format settings, GOP : Variable
Duration : 29s 960ms
Bit rate : 9 914 Kbps
Maximum bit rate : 8 000 Kbps
Width : 720 pixels
Height : 576 pixels
Display aspect ratio : 4:3
Frame rate : 25.000 fps
Standard : PAL
Color space : YUV
Chroma subsampling : 4:2:0
Bit depth : 8 bits
Scan type : Interlaced
Scan order : Top Field First
Compression mode : Lossy
Bits/(Pixel*Frame) : 0.956
Time code of first frame : 00:11:31;19
Time code source : Group of pictures header
Stream size : 35.4 MiB (94%)

Audio
ID : 189 (0xBD)-128 (0x80)
Format : AC-3
Format/Info : Audio Coding 3
Mode extension : CM (complete main)
Format settings, Endianness : Big
Muxing mode : DVD-Video
Duration : 29s 984ms
Bit rate mode : Constant
Bit rate : 384 Kbps
Channel(s) : 6 channels
Channel positions : Front: L C R, Side: L R, LFE
Sampling rate : 48.0 KHz
Bit depth : 16 bits
Compression mode : Lossy
Delay relative to video : -40ms
Stream size : 1.37 MiB (4%)

Text
ID : 189 (0xBD)-32 (0x20)
Format : RLE
Format/Info : Run-length encoding
Muxing mode : DVD-Video
Delay relative to video : -40ms

Menu

图片点击可在新窗口打开查看
图片点击可在新窗口打开查看
图片点击可在新窗口打开查看
图片点击可在新窗口打开查看
图片点击可在新窗口打开查看
图片点击可在新窗口打开查看


以下内容需要花费现金3000才可以浏览,您只有现金0,无法购买。


【公告】关于论坛威望权限金币获取途径说明 (最新修正说明)  回到顶部
帅哥哟,离线,有人找我吗?
zgj
  2楼 信息 | 搜索 | 邮箱 | 主页


加好友 发短信
等级:魔神至尊 文章:2976 积分:124 精华:0 魅力:3015 金币:4367 威望:0 注册:2013-3-21 7:42:57 近访:2019-9-23 14:42:09
  发帖心情 Post By:2019-7-29 19:44:46[只看该作者]

谢谢楼主分享

【公告】关于论坛威望权限金币获取途径说明 (最新修正说明)  回到顶部